#TITLE:Baby Cat;
#SUBTITLE:;
#ARTIST:Asia;
#TITLETRANSLIT:Baby Cat;
#SUBTITLETRANSLIT:;
#ARTISTTRANSLIT:Asia;
#CREDIT:;
#BANNER:Baby Cat-bn.png;
#BACKGROUND:Baby Cat-bg.png;
#LYRICSPATH:;
#CDTITLE:pm4cd.png;
#MUSIC:Baby Cat.mp3;
#OFFSET:0.120;
#SAMPLESTART:64.150;
#SAMPLELENGTH:20.000;
#SELECTABLE:YES;
#BPMS:0.000=109.990;
#STOPS:;
#BGCHANGES:;
// cache tags:
#FIRSTBEAT:4.750;
#LASTBEAT:346.500;
#SONGFILENAME:Songs/Music V.I.P ^_^/Baby Cat/Baby Cat.sm;
#HASMUSIC:1;
#HASBANNER:1;
#MUSICLENGTH:193.593;
// end cache tags

//---------------dance-single - ----------------
#NOTES:
     dance-single:
     :
     Hard:
     9:
     0.756,0.805,1.000,0.108,0.313,659.000,334.000,21.000,0.000,79.000:
0000
0000
0000
0000
,
0000
0000
0000
1000
0100
0010
0001
0000
0011
0000
0011
0000
1000
0100
0011
0011
,
0000
0000
0000
0000
0001
0010
0110
1000
1100
0000
1100
0000
0001
0010
0110
1100
,
0000
0000
0000
1000
0100
0010
0001
0000
0011
0000
0011
0000
1000
0100
0011
0011
,
0000
0000
0000
0000
0001
0010
0110
1000
1100
0000
1100
0000
0001
0010
0110
1100
,
0000
0011
1010
0110
,
0011
0110
1010
0000
0110
0000
1001
0000
,
0110
0011
1010
0101
,
0110
1100
0110
0000
1010
0000
0101
0000
,
0110
1010
0110
0011
,
1001
0110
1001
0000
1010
0000
0101
0000
,
0110
1010
1100
0011
,
1001
0000
1100
0000
0110
0000
0000
0000
0110
0000
0000
0000
0110
0000
0000
0110
,
0110
0110
0210
0010
0011
0001
2311
0100
,
0101
0010
0110
0001
0011
0100
3101
0010
,
1100
0010
0112
1000
0110
1000
1103
0010
,
0101
0010
1100
0001
0110
0001
0110
1000
,
0101
0010
2011
0100
0011
0001
0101
0010
,
0101
0001
3110
0001
1010
0100
0110
0001
,
1010
0100
0121
1000
0101
1000
1100
0031
,
0110
0000
0001
0000
1100
0000
0010
0001
1010
0001
0010
0001
1010
0001
0000
0000
,
0101
0000
0000
0000
0100
0010
0001
0010
0100
1001
0100
1001
0100
0010
0100
0010
,
0001
0100
0010
0100
1000
0010
0100
1000
0010
0101
0010
0101
1000
0010
0100
1000
,
0100
0000
0010
0000
0001
0010
0100
1000
0010
1001
0010
1001
0100
0010
0001
0100
,
1000
0000
0010
0000
0100
1000
0100
0010
0001
0110
1000
0110
1000
0001
0010
0100
,
0001
1000
0101
0010
1001
0100
0011
0100
,
1010
0000
0101
0000
0110
0000
1000
0100
0011
0100
1000
0000
1100
0001
0010
1000
,
0101
0000
0010
0000
1001
0000
0010
0100
0011
0100
1000
0010
0101
0010
0001
0010
,
1100
0000
1010
0000
0101
0000
0010
0000
1100
0000
0001
0000
0011
0000
0000
0011
,
0011
0011
0121
1000
0101
0100
1231
0010
,
1001
0000
0010
0000
1010
0000
0001
0001
0011
0000
1000
0010
1301
0000
0010
0000
,
1100
0000
0110
0000
1201
0000
0010
1000
0011
1000
0010
0001
1310
0000
0010
0000
,
0101
0000
0010
0000
1001
0000
0010
0010
0101
0000
1000
1000
0110
0001
0001
0000
,
0101
1010
0121
0100
1100
0001
0101
0100
,
1031
0000
0100
0000
0011
0000
1000
0000
1001
0000
0100
0100
0110
0000
0001
0000
,
1010
0000
0110
0000
1021
0000
0100
0100
1001
0000
0001
0001
1100
0000
0031
0000
,
0110
0000
0001
0000
1010
0000
0001
0010
1100
0010
0100
0010
1100
0010
0001
0000
,
1010
0000
0110
0000
1001
0000
0110
0011
,
0110
1010
0101
1100
,
0101
0000
1100
0000
0101
0000
0110
0011
,
1100
0000
0000
0000
1100
0000
0000
0000
1100
0000
0000
1100
1100
0000
1100
0000
,
1100
0011
0110
1100
,
0101
0000
1010
0000
0110
0000
1001
1100
,
0110
1010
0101
1010
,
0000
0000
0000
0110
,
1100
0001
0110
1000
0110
0001
1100
0010
,
0101
1000
0110
0001
1100
0010
0101
0010
,
1010
0100
0011
0100
1010
0010
0101
1000
,
0011
0000
0000
0011
0011
0000
0000
0011
0011
0000
0000
0011
0011
0000
0011
0000
,
0011
0100
1000
0100
0010
0100
0010
0100
0010
0100
0001
1000
0100
0010
0100
0001
,
0010
0000
1000
0100
1000
0000
0000
0000
0100
0000
0010
0000
0001
0000
0010
0000
,
0100
0001
1000
0010
0100
0001
0100
0010
,
1000
0010
0100
0010
0100
0010
0001
0010
1000
0010
0100
0010
0101
0000
0000
0000
,
1000
0010
0100
0001
0010
1000
0100
0001
,
0010
1000
0100
0001
0010
0100
0010
1000
,
0100
0001
0100
0010
1000
0100
0010
0001
,
1100
0000
1100
0000
1100
0000
1100
0000
1100
0000
1100
1100
1100
0000
1100
0000
,
0000
0000
0000
0000
0000
0000
0000
0000
0000
0000
0000
0000
0000
1000
0000
0100
,
0000
0010
0000
0001
0000
0001
0000
0010
0000
0100
0000
1000
0000
0012
0000
0000
,
0000
0000
0000
0000
0000
0110
0000
0000
1100
0000
0000
0000
0123
0000
0000
0000
,
0000
1100
0000
2130
,
0000
0000
0000
0000
0011
0000
0000
0000
0000
0000
0110
0000
3120
0000
0000
1100
,
0000
1100
0101
0000
0101
0000
1230
0000
,
0000
1010
0011
0312
,
0000
1100
0000
0213
,
0000
0000
0000
0000
1010
0000
0000
0000
0000
0000
1010
0000
0312
0000
0000
0110
,
0000
0000
1010
0000
0110
0000
0000
0110
0000
0000
0110
0000
0113
0000
0000
0000
,
0000
1100
1100
0000
0000
0000
0011
0000
,
0000
0000
1010
0000
1100
0000
0000
1100
0000
0000
1100
0000
1100
0000
0000
0000
,
0000
0000
0101
0000
0101
0000
0000
0000
0110
0000
0110
0000
0110
0000
0110
0110
,
0110
0000
0110
0000
0110
0000
0000
0011
2011
0000
0011
0000
0000
0011
0000
0000
,
0011
0010
0101
0010
3101
0001
0110
0100
,
1100
0010
1001
0010
1100
0100
1010
1000
,
0110
0000
0001
0000
0011
0000
1000
0000
0110
0000
1000
0000
0110
0000
0000
0001
,
1010
0100
0011
1000
0110
1000
0101
0010
,
1100
0010
0101
1000
0110
0010
0101
0010
,
1100
0010
1001
0100
1100
0001
0110
1000
,
0101
0000
0010
0000
1100
0000
0010
0000
0101
0000
0001
0000
1100
0000
0100
0010
,
0100
0010
0100
0010
0100
0010
0001
0001
0201
0001
0001
0001
1001
0000
0010
0000
,
1001
0010
0011
1000
0311
0010
1010
0100
,
0110
0001
0110
1000
0011
0100
1010
0100
,
0101
0010
1100
0010
0101
0010
1001
0010
,
1100
0010
0101
0010
1100
0010
0101
0001
,
2110
0001
0101
0010
0101
0001
0011
0100
,
0011
0001
0110
0001
0101
0010
3110
0001
,
1100
0000
0010
0000
0101
0000
0010
0000
1010
0000
0100
0000
1100
0000
0011
1100
,
0011
1100
0011
1100
0011
1100
0011
0000
1100
0000
0011
0000
0000
0000
0000
0000
;
